#TITLE:Cabi Song;
#SUBTITLE:Expi3nze;
#ARTIST:2PM & SNSD;
#TITLETRANSLIT:;
#SUBTITLETRANSLIT:;
#ARTISTTRANSLIT:;
#CREDIT:;
#BANNER:bn.png;
#BACKGROUND:bg.png;
#LYRICSPATH:;
#CDTITLE:cdtitle.png;
#MUSIC:Cabi Song.mp3;
#OFFSET:-0.040;
#SAMPLESTART:71.458;
#SAMPLELENGTH:12.000;
#SELECTABLE:YES;
#BPMS:0.000=134.002,3.000=133.995,4.000=134.002,7.000=133.995,8.000=134.002,11.000=133.995,12.000=134.002,14.000=133.995,15.000=134.002,18.000=133.995,19.000=134.002,22.000=133.995,23.000=134.002,25.000=133.995,26.000=134.002,29.000=133.995,30.000=134.002,33.000=133.995,34.000=134.002,37.000=133.995,38.000=134.002,40.000=133.995,41.000=134.002,44.000=133.995,45.000=134.002,48.000=133.995,49.000=134.002,51.000=133.995,52.000=134.002,55.000=133.995,56.000=134.002,59.000=133.995,60.000=134.002,62.000=133.995,63.000=134.002,66.000=133.995,67.000=134.002,70.000=133.995,71.000=134.002,74.000=133.995,75.000=134.002,77.000=133.995,78.000=134.002,81.000=133.995,82.000=134.002,85.000=133.995,86.000=134.002,88.000=133.995,89.000=134.002,92.000=133.995,93.000=134.002,96.000=133.995,97.000=134.002,100.000=133.995,101.000=134.002,103.000=133.995,104.000=134.002,107.000=133.995,108.000=134.002,110.000=133.995,111.000=134.002,114.000=133.995,115.000=134.002,118.000=133.995,119.000=134.002,122.000=133.995,123.000=134.002,125.000=133.995,126.000=134.002,129.000=133.995,130.000=134.002,133.000=133.995,134.000=134.002,136.000=133.995,137.000=134.002,140.000=133.995,141.000=134.002,144.000=133.995,145.000=134.002,148.000=133.995,149.000=134.002,151.000=133.995,152.000=134.002,155.000=133.995,156.000=134.002,159.000=133.995,160.000=134.002,162.000=133.995,163.000=134.002,166.000=133.995,167.000=134.002,170.000=133.995,171.000=134.002,174.000=133.995,175.000=134.002,177.000=133.995,178.000=134.002,181.000=133.995,182.000=134.002,185.000=133.995,186.000=134.002,188.000=133.995,189.000=134.002,192.000=133.995,193.000=134.002,196.000=133.995,197.000=134.002,200.000=133.995,201.000=134.002,203.000=133.995,204.000=134.002,207.000=133.995,208.000=134.002,211.000=133.995,212.000=134.002,214.000=133.995,215.000=134.002,218.000=133.995,219.000=134.002,221.000=133.995,222.000=134.002,225.000=133.995,226.000=134.002,229.000=133.995,230.000=134.002,233.000=133.995,234.000=134.002,236.000=133.995,237.000=134.002,240.000=133.995,241.000=134.002,244.000=133.995,245.000=134.002,247.000=133.995,248.000=134.002,251.000=133.995,252.000=134.002,255.000=133.995,256.000=134.002,259.000=133.995,260.000=134.002,262.000=133.995,263.000=134.002;
#STOPS:;
#BGCHANGES:;
// cache tags:
#FIRSTBEAT:0.000;
#LASTBEAT:256.000;
#SONGFILENAME:Songs/SDO pack 1/Cabi Song(2PM-SNSD)/Cabi Song.sm;
#HASMUSIC:1;
#HASBANNER:1;
#MUSICLENGTH:119.147;
// end cache tags

//---------------dance-single - ----------------
#NOTES:
     dance-single:
     :
     Hard:
     20:
     0.990,1.000,1.000,0.781,0.180,473.000,252.000,93.000,0.000,191.000:
0002
0000
0000
0010
0000
0000
1000
0000
0000
0000
0010
0000
1000
0000
0000
0000
,
1000
0000
0000
0010
0000
0000
0100
0000
0000
0000
1000
0000
0010
0000
0000
0000
,
0100
0000
0000
1000
0000
0000
0100
0000
0000
0000
1000
0000
0010
0000
0000
0000
,
2100
0000
0000
0010
0000
0000
0010
0000
0000
0000
0100
0000
0010
0000
0100
0100
,
3113
0000
0000
0000
1001
0000
0100
0100
0000
0000
0010
0000
1100
0000
0001
0001
,
1100
0000
0000
1000
0011
0000
0010
0010
0000
0000
0100
0000
1100
0000
0010
0000
,
1100
0010
0011
0100
1100
0010
0011
0100
,
2011
0011
0110
0101
0110
0011
0110
0001
,
3112
0000
0000
0010
1100
0000
0100
0000
0110
0000
1000
0000
1100
0000
0110
0000
,
1100
0000
0000
0110
0000
0000
1100
0000
0000
0000
0110
0000
1000
0000
0113
0000
,
2110
0000
0000
0100
0011
0000
0100
0000
0011
0000
0100
0000
0011
0000
0110
0000
,
0011
0000
0000
0110
0000
0000
0011
0000
0000
0000
0011
0000
0100
0000
3021
0000
,
0102
0000
1100
0000
1100
0030
1100
0000
,
0110
0000
0000
1100
0000
0000
0110
0000
0000
0000
1100
0000
0000
0000
0123
0000
,
2101
0000
0101
0000
0101
0030
0011
0000
,
0101
0000
0000
0110
0000
0000
0011
0000
0000
0000
0110
0000
0000
0000
3010
0000
,
0012
0100
1010
0010
0100
1000
0110
0013
,
2100
0000
0000
0010
0101
0000
0010
0000
0100
0000
0001
0000
0110
0000
3010
0000
,
1002
1000
0110
1000
0010
1000
0110
1003
,
2001
0000
0000
0100
0011
0000
0100
0000
0010
0000
0001
0000
0110
0000
3001
0000
,
0012
0100
1100
0010
1000
0100
1100
0013
,
0120
0000
0000
0001
1100
0000
0100
0000
1000
0000
0001
0000
1100
0000
0130
0000
,
2010
0000
0110
0000
0011
0000
0110
0000
0011
0000
0100
0100
0001
0001
3110
0000
,
1002
1100
0110
1010
1100
0010
0110
0113
,
0210
0000
0011
1000
0010
1000
0011
1300
,
1020
0000
0000
0001
1100
0000
0001
0000
0100
0000
0001
0000
1100
0000
0031
0000
,
2100
0000
0011
0100
0001
0100
0011
3100
,
0012
0000
0010
0010
1100
0000
0010
0000
1000
0000
0010
0000
1100
0000
0013
0000
,
2010
0000
0011
0100
0010
0100
0011
3001
,
1200
0000
1000
1000
0011
0000
1000
0000
0001
0000
1000
0000
0011
0000
1300
0000
,
0011
0000
1100
0110
0011
1100
1010
0101
,
1011
0000
0000
1110
0000
0000
1101
0000
0000
0000
0101
0000
1010
0000
0101
0000
,
2010
0000
0011
3200
0011
1000
0320
1100
,
0001
0000
0000
1100
2100
0000
0001
0000
0001
0000
0100
0000
3101
0000
0101
0000
,
2031
0000
0110
3012
0110
1000
0213
0011
,
0011
0000
0000
0011
0012
0000
1000
0000
0010
0000
1000
0000
0013
0000
0010
0000
,
2301
0110
0011
3021
1100
1100
0231
1000
,
0312
1100
1100
2013
0101
0011
3121
1000
,
2030
0000
0101
0000
0110
0000
3102
0000
1100
0000
0110
0000
0123
0000
0000
2200
,
0030
0000
0000
0000
0000
0000
3301
0010
,
1002
0000
1000
1000
0110
0000
0100
0000
0010
0000
1000
0000
0110
0000
0103
0000
,
2001
0000
0100
0100
0011
0000
0100
0000
0010
0000
0001
0000
0011
0000
3100
0000
,
0021
0000
0001
0001
1100
0000
0001
0000
0001
0000
0100
0000
1001
0000
0031
0000
,
0210
0000
1000
1000
0011
0000
1000
0000
0001
0000
0010
0000
0011
0000
1300
0000
,
0021
0000
0001
0001
1100
0000
0001
0000
1000
0000
0100
0000
1100
0000
0001
0000
,
0100
0000
0001
0001
1100
0000
0100
0000
0001
0000
0001
0000
1100
0000
0031
0000
,
0102
0000
1100
0000
1010
0000
0110
0000
0110
0000
1000
1000
0010
0010
1103
0000
,
0021
1100
1100
0101
2031
0100
0001
0110
,
3011
0100
1100
0010
0011
0100
1100
0010
,
1000
0000
0100
0100
0011
0000
1200
0000
0001
0000
0321
0000
1100
0000
0032
0000
,
1100
0010
0110
0100
1100
0013
0011
0100
,
0001
0000
0010
0010
1100
0000
0021
0000
0100
0000
1230
0000
0011
0000
0302
0000
,
0110
0100
1010
0100
0110
0103
1010
0001
,
1000
0000
0001
0001
1100
0000
0021
0000
0100
0000
2130
0000
0011
0000
3200
0000
,
0011
0010
1010
0001
0011
1300
1001
0010
,
0100
0000
0000
0001
1100
0000
0021
0000
0000
0000
1230
0000
0011
0000
1300
0000
,
0220
2332
3223
2332
,
3103
0000
1000
0011
0100
0000
0011
0000
0100
0000
0011
0000
0110
0000
1000
0000
,
0202
2323
3232
2323
,
3131
0000
0001
1100
0001
0000
0011
0000
1000
0000
0011
0000
1100
0000
0010
0000
,
2020
3232
2323
3232
,
1313
0000
0001
1100
0001
0000
0110
0000
1000
0000
0110
0000
0011
0000
1000
0000
,
0022
2233
3322
2233
,
3311
0000
0001
1100
0001
0000
0101
0000
0010
0000
1010
0000
0101
0000
1000
0000
,
0011
0000
0000
0000
;
